ByArchive

Free download torrents you need
    New Download Links
    Speed
     kbps
     kbps
     kbps

    Pluralsight - jQuery Mobile and ASP.NET MVC 4

    Category: ebooks data: 27-04-2015, 20:31
    Rating:
    (votes: 6)

    Pluralsight - jQuery Mobile and ASP.NET MVC 4
    WMV | WMV3 257kbps | English | 1024x768 | 15fps | 1h 47mins | WMA2 mono 48kbps | 240 MB
    Genre: Video Training

    This course will use HTML 5, jQuery Mobile, ASP.NET MVC 4, and Visual Studio 2011 to demonstrate the widgets, API, touch-events, and navigation features of jQuery Mobile. jQuery Mobile is a JavaScript framework for web developers who want to optimize web sites for smartphones and tablets. This course will use HTML 5, jQuery Mobile, ASP.NET MVC 4, and Visual Studio 2011 to demonstrate the widgets, API, touch-events, and navigation features of jQuery Mobile. We'll take an existing web site built for desktop applications and reuse as much code as possible while building out a better experience for mobile users.

    Introduction to jQuery Mobile
    17:29
    Page, Dialogs, and Navigation with jQuery Mobile
    33:59
    jQuery Mobile Widgets
    22:36
    jQuery Mobile APIs
    33:35

    Mediainfo:

    Format : Windows Media
    File size : 21.7 MiB
    Duration : 9mn 26s
    Overall bit rate mode : Variable
    Overall bit rate : 321 Kbps
    Maximum Overall bit rate : 1 182 Kbps
    Movie name : jqm-widgets
    Performer : scott allen
    Encoded date : UTC 2012-04-26 04:19:12.400
    Video #2
    ID : 2
    Format : VC-1
    Format profile : [email protected]
    Codec ID : WMV3
    Codec ID/Info : Windows Media Video 9
    Codec ID/Hint : WMV3
    Description of the codec : Windows Media Video 9
    Duration : 9mn 26s
    Bit rate mode : Variable
    Bit rate : 257 Kbps
    Width : 1 024 pixels
    Height : 768 pixels
    Display aspect ratio : 4:3
    Frame rate : 15.000 fps
    Color space : YUV
    Chroma subsampling : 4:2:0
    Bit depth : 8 bits
    Scan type : Progressive
    Compression mode : Lossy
    Bits/(Pixel*Frame) : 0.022
    Stream size : 17.3 MiB (80%)
    Language : English (US)
    Audio #1
    ID : 1
    Format : WMA
    Format version : Version 2
    Codec ID : 161
    Codec ID/Info : Windows Media Audio
    Description of the codec : Windows Media Audio 9.2 - 48 kbps, 44 kHz, mono (A/V) 1-pass CBR
    Duration : 9mn 26s
    Bit rate mode : Constant
    Bit rate : 48.0 Kbps
    Channel(s) : 1 channel
    Sampling rate : 44.1 KHz
    Bit depth : 16 bits
    Stream size : 3.24 MiB (15%)
    Language : English (US)






    No mirrors please





    Free Full Download Pluralsight - jQuery Mobile and ASP.NET MVC 4 form MediaFire.com link RapidShare, ifile.it, Uploaded.to, Zippyshare, FileSonic, turbobit.net, ul.to, ORON, DepositFiles, rapidgator.net, letitbit.net, extabit.com, filefactory.com. Pluralsight - jQuery Mobile and ASP.NET MVC 4 Torrent Download with keygen, crack, serial, 1080p, hdrip, 720p, 2015

    RealVNC Enterprise v5.2.2 – P2P

    P2P group has released latest version of the application “RealVNC Enterprise”. Enjoy! Description: VNC is remote control software which allows you to view and fully interact with one computer desktop (the “VNC server”) using a simple program (the “VNC viewer”) on another computer desktop anywhere on the Internet. The two computers don’t even have to be the same type, so for example you can use...

    Instagram v6.9.1 ANDROiD-P2P

    P2P released the latest version of another famous app, “Instagram” for ANDROiD. Enjoy guys! Description: Instagram – A beautiful way to share your world. It’s fast, free and fun! 

Pick from one of several gorgeous filtered effects to breathe a new life into your mobile photos. Transform everyday moments into works of art you’ll want to share with friends and family.

 Share your photos in a...

    WinX DVD Ripper Platinum v7.5.10.140 Build 22.10.2014 Multilanguage-P2P

    P2P group has released the updated version of WinX DVD Ripper Platinum. Back up your DVDs (including commercial movies) and convert them to various mobile formats with this utility. Description: WinX DVD Ripper Platinum is a Windows-based DVD ripper software capable of ripping any DVD (incl. latest encrypted DVD discs and ISO images) to mainstream videos, such as rip DVD to AVI, DVD to MP4,...

    Real Racing 3 v3.2.0 Mod Android – P2P

    P2P group has released the newest version of “Real Racing 3 ” for PC Game, you will have unlimited money and all cars. Check the nfo for instruction to install. Description: Real Racing 3 is an award-winning franchise that sets a new standard for mobile racing games – it really must be experienced to be believed. Real Racing 3 features a continuously expanding roster of officially licensed...

    Any Video Converter Ultimate v5.7.3 Multilanguage-P2P

    P2P group has released the latest version of “Any Video Converter Ultimate”. It is an application that you can use to encode video clips of multiple formats (including MOV, MP4, DVDs and MKV) to others (e.g. MP4, WMA, AVI, SWF, FLV). It also includes portable version. Description: Any Video Converter Ultimate will provide users with an All-in-One DVD ripper, video converter and DVD creator that...

Origami Book. Animals 10 Easy Paper Folding Projects With Step
Origami Book. Animals: 10 Easy Paper Folding Projects With Step By Step
Oriana Fallaci The Journalist, the Agitator, the Legend
Oriana Fallaci: The Journalist, the Agitator, the Legend by Cristina De
Ordinary Differential Equations Basics and Beyond
Ordinary Differential Equations: Basics and Beyond (Texts in Applied
Options, Futures, and Other Derivatives, 10th Edition
Options, Futures, and Other Derivatives, 10th Edition by John C. Hull English |
Poster Boys 2017 Untouched NTSC DVD9-DDR
Poster Boys 2017 Untouched NTSC DVD9-DDR Size: 6.60 GiB | Duration: 2:09:59 |
Poster Boys 2017 720p DVDRip x264 DD5 1-DDR
Poster Boys 2017 720p DVDRip x264 DD5 1-DDR Size: 3.00 GiB | Duration: 2:09:59
The Big Bang Theory S11E08 HDTV x264-SVA
The Big Bang Theory S11E08 HDTV x264-SVA Size: 136 MiB | Duration: 00:18:28 |
The Big Bang Theory S11E08 720p HDTV x264-AVS
The Big Bang Theory S11E08 720p HDTV x264-AVS Size: 506 MiB | Duration:

Download Torrents. Fast and Free Torrent Downloads.

Not Store Any File In Server. The Links Are Provided Solely By This Site's Users.

If You Have Any Doubts About Legality Of Content, Feel Free To Contact US.
2015-2017